Jump to content
IGNORED

Afro Bossa 24 bit / 192 kHz Flat Master - Duke Ellington


Recommended Posts

folder.jpg

 

Afro Bossa by Duke Ellington (24 bit - 192 kHz) Flat Master Download

Flat Master Release Date: 2011

Label: Warner Brothers

Purchase & Download HDtracks [[/url]

 

Click To Enlarge

2-Purple Gazelle

 

Click To Enlarge

3-Absinthe

 

Click To Enlarge

4-Moonbow

 

Click To Enlarge

5-Sempre Amore

 

Click To Enlarge

6-Silk Lace

 

Click To Enlarge

7-Tigress

 

Click To Enlarge

8-Angu

 

Click To Enlarge

9-Volupte

 

Click To Enlarge

10-Bonga

 

Click To Enlarge

11-Pyramid

 

Click To Enlarge

12-Eighth Veil

 

 

 

 

 

 

----------------------------------------------------------------------------------------------

Analyzed folder: Duke Ellington/Afro Bossa (24 bit - 192 kHz Flat Master)

----------------------------------------------------------------------------------------------

DR Peak RMS Filename

----------------------------------------------------------------------------------------------

 

DR12 -0.40 dB -17.32 dB 1-AfroBossa.wav

DR11 -1.30 dB -14.76 dB 10-Bonga.wav

DR11 -0.64 dB -14.59 dB 11-Pyramid.wav

DR12 -0.38 dB -14.55 dB 12-Eighth Veil.wav

DR12 -0.00 dB -13.92 dB 2-Purple Gazelle.wav

DR13 -1.18 dB -18.83 dB 3-Absinthe.wav

DR11 -0.46 dB -13.99 dB 4-Moonbow.wav

DR11 -2.04 dB -15.95 dB 5-Sempre Amore.wav

DR11 -1.89 dB -16.67 dB 6-Silk Lace.wav

DR12 -0.44 dB -14.56 dB 7-Tigress.wav

DR11 -1.33 dB -14.78 dB 8-Angu.wav

DR11 -2.68 dB -17.67 dB 9-Volupte.wav

----------------------------------------------------------------------------------------------

 

Number of files: 12

Official DR value: DR11

 

==============================================================================================

 

 

 

 

Founder of Audiophile Style | My Audio Systems

Link to comment

That's what I see in the graphs. Am I understanding them correctly?

 

More important: how does it sound? Really good? Good for an old recording? Nothing special? Bad?

 

Main listening (small home office):

Main setup: Surge protector +_iFi  AC iPurifiers >Isol-8 Mini sub Axis Power Conditioning+Isolation>QuietPC Low Noise Server>Roon (Audiolense DRC)>Stack Audio Link II>Kii Control>Kii Three >GIK Room Treatments.

Secondary Path: Server with Audiolense RC>RPi4 or analog>Cayin iDAC6 MKII (tube mode) (XLR)>Kii Three .

Bedroom: SBTouch to Cambridge Soundworks Desktop Setup.
Living Room/Kitchen: Ropieee (RPi3b+ with touchscreen) + Schiit Modi3E to a pair of Morel Hogtalare. 

All absolute statements about audio are false :)

Link to comment

Create an account or sign in to comment

You need to be a member in order to leave a comment

Create an account

Sign up for a new account in our community. It's easy!

Register a new account

Sign in

Already have an account? Sign in here.

Sign In Now


×
×
  • Create New...