Jump to content
IGNORED

Wilco - Summer Teeth


Recommended Posts

Better don't buy it... DR is 6

 

foobar2000 1.3.3 / Dynamic Range Meter 1.1.1

log date: 2014-10-15 00:03:47

 

--------------------------------------------------------------------------------

Analyzed: Wilco / Summerteeth [HDtracks 24¦96]

--------------------------------------------------------------------------------

 

DR Peak RMS Duration Track

--------------------------------------------------------------------------------

DR6 -0.09 dB -7.81 dB 3:47 01-Can't Stand It

DR7 -0.10 dB -8.34 dB 4:43 02-She's A Jar

DR6 0.00 dB -8.02 dB 4:19 03-A Shot In The Arm

DR8 -0.10 dB -11.21 dB 2:45 04-We're Just Friends

DR6 -0.09 dB -7.60 dB 3:41 05-I'm Always In Love

DR6 -0.09 dB -7.55 dB 3:21 06-Nothing'severgonnastandinmyway (Again)

DR7 -0.10 dB -10.16 dB 3:26 07-Pieholden Suite

DR9 -0.09 dB -10.66 dB 3:53 08-How To Fight Loneliness

DR6 -0.10 dB -9.40 dB 5:34 09-Via Chicago

DR6 -0.07 dB -7.26 dB 3:46 10-ELT

DR6 -0.10 dB -7.76 dB 3:38 11-My Darling

DR7 -0.10 dB -9.64 dB 3:56 12-When You Wake Up Feeling Old

DR7 -0.09 dB -8.89 dB 3:21 13-Summer Teeth

DR7 -0.10 dB -10.56 dB 2:57 14-In A Future Age

DR0 -1.#J dB -1.#J dB 0:23 15-23 Seconds Of Silence

DR7 0.00 dB -8.59 dB 2:58 16-Candyfloss

DR6 -0.10 dB -7.75 dB 3:54 17-A Shot In The Arm (Remix Version)

--------------------------------------------------------------------------------

 

Number of tracks: 17

Official DR value: DR6

 

Samplerate: 96000 Hz

Channels: 2

Bits per sample: 24

Bitrate: 3210 kbps

Codec: FLAC

================================================================================

Link to comment
Better don't buy it... DR is 6

 

 

================================================================================

 

Urs, I've always thought The Whole Love is one of the better sounding downloads I have, and the DR for it is similarly low, if I recall correctly. So I would withhold judgment on the basis of DR alone, and ask: How does it sound to you? Lame and compressed? Or pretty good?

One never knows, do one? - Fats Waller

The fairest thing we can experience is the mysterious. It is the fundamental emotion which stands at the cradle of true art and true science. - Einstein

Computer, Audirvana -> optical to EtherREGEN -> microRendu -> ISO Regen -> Pro-Ject Pre Box S2 DAC -> Spectral DMC-12 & DMA-150 -> Vandersteen 3A Signature.

Link to comment

I totally agree Jud. DR is just one part of the equation. Also agree about the sound of The Whole Love. I don't care that much for a Wilco, but love the sound of that album.

Aurender S10--> Berkeley Alpha USB—> Meitner MA-1 --> Audio Research REF6 Pre --> Audio Research REF-110-->Vandersteen Quatro CT Speakers

 

Sonore UltraRendu with Uptone power supply —> Meitner MA1

 

AQ Sky XLR Interconnects, Audioquest Diamond USB, Wireworld Platinum Starlight USB, Nordost Heimdall 2 AES-EBU

 

AMG Giro Turntable w Lyra Delos Cartridge —> Audio Research Ref 3 PhonoPre

 

HRS RXR Rack with Isolation Bases

Link to comment

You're both right... I posted to fast. I did not yet listen (was too late in the evening), I was just annoyed by the "DR6". I will listen this evening, compare it against the CD and report back.

I agree, DR is just one criteria. I also have several albums, which have an "8" and sound excellent. Though I cannot recall an album with a DR6, sounding good to my ears. But enough number crunching...

Link to comment

Using foobar ABX tool adjusted for volume differences (track ReplayGain) I am not able to hear any differences between this and the CD.

I am using HD800 headphones (balanced cabling), Headamp GS-X mk2 headphone amp, Resonessence Invicta DAC.

Link to comment

Create an account or sign in to comment

You need to be a member in order to leave a comment

Create an account

Sign up for a new account in our community. It's easy!

Register a new account

Sign in

Already have an account? Sign in here.

Sign In Now


×
×
  • Create New...