Jump to content
IGNORED

EAC log file question


Recommended Posts

Hey guys,

 

Answer me this; I was browsing through my music collection the other day and came across this. I noticed some discrepancies between the .log, .cue and the actual flac file. Since the forum software wont let me attach .log and .cue files, i guess i'll just have to C&P and highlight what i'm taking about. The CD only has 10 songs, yet on the .log file it shows 11 tracks while the flac and .cue files show 10. Can someone please explain this to me? Much thanks!

 

================================================================================

 

Exact Audio Copy V0.99 prebeta 5 from 4. May 2009

 

 

Îò÷¸ò EAC îá èçâëå÷åíèè, âûïîëíåííîì 1. èþíÿ 2010, 19:01

 

 

Gareth Gates / Go Your Own Way - Night

 

 

Äèñêîâîä: PIONEER DVD-RW DVR-112D Adapter: 1 ID: 0

 

 

Ðåæèì ÷òåíèÿ : Äîñòîâåðíîñòü

Èñïîëüçîâàíèå òî÷íîãî ïîòîêà : Äà

Îòêëþ÷åíèå êýøà àóäèî : Äà

Èñïîëüçîâàíèå óêàçàòåëåé C2 : Íåò

 

 

Êîððåêöèÿ ñìåùåíèÿ ïðè ÷òåíèè : 48

Ñïîñîáíîñòü ÷èòàòü îáëàñòè Lead-in è Lead-out : Íåò

Çàïîëíåíèå ïðîïóùåííûõ ñýìïëîâ òèøèíîé : Äà

Óäàëåíèå áëîêîâ ñ òèøèíîé â íà÷àëå è êîíöå : Íåò

Ïðè âû÷èñëåíèÿõ CRC èñïîëüçîâàëèñü íóëåâûå ñýìïëû : Äà

Èíòåðôåéñ : Óñòàíîâëåííûé âíåøíèé ASPI-èíòåðôåéñ

 

 

Âûõîäíîé ôîðìàò : Âíóòðåííèå WAV-îïåðàöèè

Ôîðìàò ñýìïëîâ : 44.100 Ãö; 16 áèò; ñòåðåî

 

 

 

 

TOC èçâëå÷¸ííîãî CD

 

 

Òðåê | Ñòàðò | Äëèòåëüíîñòü | Íà÷àëüíûé ñåêòîð | Êîíå÷íûé ñåêòîð

---------------------------------------------------------------------

1 | 0:00.00 | 3:39.15 | 0 | 16439

2 | 3:39.15 | 3:46.47 | 16440 | 33436

3 | 7:25.62 | 3:28.18 | 33437 | 49054

4 | 10:54.05 | 3:42.30 | 49055 | 65734

5 | 14:36.35 | 4:14.14 | 65735 | 84798

6 | 18:50.49 | 3:22.27 | 84799 | 99975

7 | 22:13.01 | 3:13.18 | 99976 | 114468

8 | 25:26.19 | 3:51.17 | 114469 | 131810

9 | 29:17.36 | 3:33.27 | 131811 | 147812

10 | 32:50.63 | 4:08.73 | 147813 | 166485

11 | 39:31.61 | 34:26.14 | 177886 | 332849

 

 

 

 

Õàðàêòåðèñòèêè äèàïàçîíà èçâëå÷åíèÿ è ñîîáùåíèÿ îá îøèáêàõ

 

 

Âûáðàííûé äèàïàçîí

 

 

Èìÿ ôàéëà D:\Gareth Gates\2003\Gareth Gates - Go Your Own Way - Night - CD1\Gareth Gates - Go Your Own Way - Night.wav

 

 

Ïèêîâûé óðîâåíü 98.8 %

Êà÷åñòâî äèàïàçîíà 99.6 %

CRC òåñòà BF7DE0BF

CRC êîïèè BF7DE0BF

Êîïèðîâàíèå... OK

 

 

Îøèáîê íå ïðîèçîøëî

 

 

Êîíåö îò÷¸òà

 

 

================================================================================

 

REM GENRE Pop

REM DATE 2003

REM DISCID 9911560B

REM COMMENT "ExactAudioCopy v0.99pb5"

PERFORMER "Gareth Gates"

TITLE "Go Your Own Way - Night"

FILE "Gareth Gates - Go Your Own Way - Night.flac" WAVE

TRACK 01 AUDIO

TITLE "Sunshine"

PERFORMER "Gareth Gates"

INDEX 01 00:00:00

TRACK 02 AUDIO

TITLE "Groove with me"

PERFORMER "Gareth Gates"

INDEX 00 03:38:33

INDEX 01 03:39:15

TRACK 03 AUDIO

TITLE "Absolutely"

PERFORMER "Gareth Gates"

INDEX 00 07:25:49

INDEX 01 07:25:62

TRACK 04 AUDIO

TITLE "All cried out"

PERFORMER "Gareth Gates"

INDEX 00 10:52:25

INDEX 01 10:54:05

TRACK 05 AUDIO

TITLE "Enough of me"

PERFORMER "Gareth Gates"

INDEX 00 14:35:58

INDEX 01 14:36:35

TRACK 06 AUDIO

TITLE "Go your own way"

PERFORMER "Gareth Gates"

INDEX 00 18:48:66

INDEX 01 18:50:49

TRACK 07 AUDIO

TITLE "Just say yes"

PERFORMER "Gareth Gates"

INDEX 00 22:12:10

INDEX 01 22:13:01

TRACK 08 AUDIO

TITLE "Freak my baby"

PERFORMER "Gareth Gates"

INDEX 00 25:25:56

INDEX 01 25:26:19

TRACK 09 AUDIO

TITLE "Club Hoppin"

PERFORMER "Gareth Gates"

INDEX 00 29:17:14

INDEX 01 29:17:36

TRACK 10 AUDIO

TITLE "Soul Affection"

PERFORMER "Gareth Gates"

INDEX 00 32:49:70

INDEX 01 32:50:63

Computer >> Pioneer VSX 520 >> PSB Imagine B

Link to comment
I know what album it is. My problem is the track listings on the log file dont match up to any of the editions listed on there

 

Would it not appear that the EAC log is referring to the fact that there is a second disk for the British edition when it shows track 11 as being 34.26:14 in length?

Go Your Own Way — British edition (tracks 1-10 on disc one, tracks 11-19 on disc two)

"Relax, it's only hi-fi. There's never been a hi-fi emergency." - Roy Hall

"Not everything that can be counted counts, and not everything that counts can be counted." - William Bruce Cameron

 

Link to comment
Would it not appear that the EAC log is referring to the fact that there is a second disk for the British edition when it shows track 11 as being 34.26:14 in length?

Go Your Own Way — British edition (tracks 1-10 on disc one, tracks 11-19 on disc two)

Agreed.

EAC has already reported it as CD1.

 

How a Digital Audio file sounds, or a Digital Video file looks, is governed to a large extent by the Power Supply area. All that Identical Checksums gives is the possibility of REGENERATING the file to close to that of the original file.

PROFILE UPDATED 13-11-2020

Link to comment
The CD only has 10 songs, yet on the .log file it shows 11 tracks while the flac and .cue files show 10. Can someone please explain this to me?

 

You usually get this when the CD contains additional data that is not audio. This disk is allegedly copy protected, so it's not necessarily useful data. Compare the metadata you used for ripping: DISCID 9911560B

Primary ::= Nabla music server | Mutec MC-3+USB w/ Temex LPFRS-01 RB clock | WLM Gamma Reference DAC; Secondary ::= Nabla music server | WaveIO | PrismSound Lyra

Link to comment

Create an account or sign in to comment

You need to be a member in order to leave a comment

Create an account

Sign up for a new account in our community. It's easy!

Register a new account

Sign in

Already have an account? Sign in here.

Sign In Now


×
×
  • Create New...