Jump to content

wwaldmanfan

  • Content Count

    1917
  • Joined

  • Last visited

About wwaldmanfan

  • Rank
    unqualified audiophile

Personal Information

  • Location
    NJ, USA

Recent Profile Visitors

3886 profile views
  1. wwaldmanfan

    Audirvana 3 Bug & Issue Reports

    Does Damien monitor these threads? I posted this question a day ago as a new topic, with 0 responses. If Audirvana can see all of my AirPlay devices, why can I only select one for playback? I guess I'll have to go back to using * iTunes *, as this is the only native Mac player than can accomplish the amazing feat of playing all of them simultaneously. I did try AirFoil, and got terrible static. I made them refund my money.
  2. Audirvana recognizes all three of my home AirPlay devices, but can only stream to one at a time. Anyone know a workaround for this?
  3. I have the same ~3dB discrepancy, but I think it is a defect in the output stage of my DAC. I contacted NAD, and they said most of the unit's functionality is on one main circuit board, and, since it is out of warranty, I'm not going to pursue a repair. So, I use this AU plug-in with Audirvana, and it works great. The file takes 98mb disk space to install, but that is tiny, so why the concern? TIP: if you hold down the shift key, you can adjust the gain in 1/10 dB increments.
  4. wwaldmanfan

    Sublime Christmas Music

  5. I transcode my lossless files with XLD for the music player in my car (a repurposed old iPhone) to save HD space. Which format provides the best quality at 320kbps: CBR, ABR, Constrained VBR, or True VBR? Thanks for your advice.
  6. wwaldmanfan

    Lush^2 - Share your configuration experiences

    Some folks think that coax S/PDIF cables can suffer from internal reflections. Something to do with sine wave length. I'm not an electronics expert on these things, but I did have an experience where a .5M 75Ω Canare cable seemed to transmit more noise than the identical 1M cable in a setup from a tube amp to a DAC. For coax S/PDIF, the ideal length is recommended 1M to 1.5M. I can't imagine anyone here could claim to hear a difference that you describe with a USB cable. I would go with the longer cable to simply allow for more flexibility, notwithstanding the presumably higher cost, since someone mentioned that these cables are stiff.
  7. wwaldmanfan

    Upgrade at your own risk

    It's not crummy recordings, it's the brickwalled masters for digital release. I'll never understand it. Here's the latest Boz Scaggs album, the CD vs. a needledrop from vinyl. The digital is unlistenable. (There's a couple of different, additional songs on each version, but here I wanted to compare apples w/apples.) Of course, I'm preaching to the choir here, but the conundrum is why spend five figures on a digital audio system to play this crap? I thought the recent vinyl craze was a fad, now I'm beginning to understand the rationale. Analyzed folder: Boz Scaggs/Out Of The Blues/CD ---------------------------------------------------------------------------------------------- DR Peak RMS Filename ---------------------------------------------------------------------------------------------- DR6 -0.07 dB -7.46 dB 01. Rock and Stick.aiff DR8 -0.10 dB -10.27 dB 02. I've Just Got to Forget You.aiff DR8 -0.04 dB -8.99 dB 03. I've Just Got to Know.aiff DR6 -0.04 dB -7.58 dB 04. Radiator 110.aiff DR6 -0.08 dB -7.23 dB 05. Little Miss Night and Day.aiff DR9 -0.02 dB -11.32 dB 06. On the Beach.aiff DR7 -0.00 dB -8.10 dB 07. Down in Virginia.aiff DR6 over -7.33 dB 08. Those Lies.aiff DR7 -0.01 dB -8.83 dB 09. The Feeling Is Gone.aiff ---------------------------------------------------------------------------------------------- Number of files: 9 Official DR value: DR7 Analyzed folder: Boz Scaggs/Out Of The Blues (vinyl) ---------------------------------------------------------------------------------------------- DR Peak RMS Filename ---------------------------------------------------------------------------------------------- DR11 -2.44 dB -14.60 dB 01 Rock And Stick.aiff DR12 -2.84 dB -17.47 dB 02 I've Just Got To Forget You.aiff DR12 -1.86 dB -15.98 dB 03 I've Just Go To Know.aiff DR12 -0.83 dB -14.51 dB 04 Radiator 110.aiff DR11 -2.02 dB -13.99 dB 05 Little Miss Night And Day.aiff DR16 -1.94 dB -19.39 dB 06 On The Beach.aiff DR13 -1.40 dB -16.17 dB 07 Down In Virginia.aiff DR13 -1.17 dB -15.79 dB 08 Those Lies.aiff DR13 -1.96 dB -17.18 dB 09 The Feeling Is Gone.aiff ---------------------------------------------------------------------------------------------- Number of files: 9 Official DR value: DR12
  8. wwaldmanfan

    Upgrade at your own risk

    Ironic, isn't it? The loudness wars are worse than ever. With few exceptions, I don't buy new music anymore.
  9. wwaldmanfan

    Audirvana+ Library Issue

    It would help if you listed your system info on your profile page. Are you on a Mac or PC, and what version of Audirvana are you using?
  10. wwaldmanfan

    Audirvana+ Library Issue

    Your computer's hard drive > Users > Your administrator folder > Library > Application Support > Audirvana Delete the files in the above Audirvana folder. Next time you launch the app, it will ask you to create a new library. Make sure your Audirvana license key files are backed up elsewhere on your computer.
  11. wwaldmanfan

    Everything sounds the same

    It does work, but will burn out the oven components. Appliances are made like crap these days, and most only come with a 1-year warranty. I've been through more than my share, and I don't tend to abuse things.
  12. wwaldmanfan

    Everything sounds the same

    I know your comment was facetious regarding cooking a pizza, but I dropped 7K on a Wolf double wall oven as part of a kitchen renovation, and was strongly advised by them, as well as others in the know, that "self-clean" will shorten the life of any oven. Avoiding this feature makes sense to me. If your oven is dirty, use oven cleaning spray.
  13. wwaldmanfan

    Everything sounds the same

    Believe it or not, there is a buffalo farm in NJ, and a couple of the better pizzarias around here do use buffalo mozz. It does taste really good. Regarding coal-fired pizza ovens, this trend started in the NYC area around 15 years ago at Lombardi's. This is not uncommon all over NY and NJ now.
  14. wwaldmanfan

    Everything sounds the same

    I saw McDonald's on the Av. des Champs-Élysées in Paris 35 years ago, and the line was out the door. This surprised me. Either it was an "American novelty" back then, or there for the benefit of foreign tourists too intimidated to appreciate the unique local cuisine. I have a friend like that and it ultimately cost him his first marriage. His wife was a gourmet cook. His favorite food is hot dogs. She remarried someone more sophisticated, and moved to Switzerland, and he's now on wife #3.
  15. wwaldmanfan

    Everything sounds the same

    840+ posts to a deliberately pointless thread. If these people don't have anything better to do, maybe you need to tighten the reins. I've all but given up coming here, but that's because I'd rather listen to music than BS about it.
×