Jump to content
KDinsmore

jorma kaukonen and jack casady before we were them

Rate this topic

Recommended Posts

Anyone get this? Owsley Stanley Foundation issue? I think I'm going to bite here. Wish me luck!


Furutech GTX-D>J River 23>Cardas Clear USB>Wyred4Sound DAC2v2 SE>Moon Audio Blue Dragon IC>Cavalli Liquid Fire>Q French Silk Headphone cable>Audeze LCD2rev2>my ears>audiophile brain

Share this post


Link to post
Share on other sites

Got it sounds great.

Analyzed Folder: I:\Music\Jorma Kaukonen & Jack Casady\Before We Were Them\Before We Were Them_dr.txt
----------------------------------------------------------------------------------------------
DR         Peak       RMS        Filename                      
----------------------------------------------------------------------------------------------

DR14       -0.20 dB   -16.85 dB  01 - Rock Me Baby.flac        
DR16       -0.54 dB   -18.81 dB  02 - Turnaround.flac          
DR16       -0.20 dB   -17.91 dB  03 - Star Track.flac          
DR16       -0.20 dB   -18.55 dB  04 - Through The Golden Gate.flac
DR15       -0.45 dB   -18.43 dB  05 - Come Back Baby.flac      
DR17       -0.21 dB   -19.19 dB  06 - Through The Grove.flac   
DR14       -0.44 dB   -16.47 dB  07 - Inspiration In The Hall Of Arrivals.flac
----------------------------------------------------------------------------------------------

 Number of Files: 7
 Official DR Value: DR15


Furutech GTX-D>J River 23>Cardas Clear USB>Wyred4Sound DAC2v2 SE>Moon Audio Blue Dragon IC>Cavalli Liquid Fire>Q French Silk Headphone cable>Audeze LCD2rev2>my ears>audiophile brain

Share this post


Link to post
Share on other sites

Create an account or sign in to comment

You need to be a member in order to leave a comment

Create an account

Sign up for a new account in our community. It's easy!

Register a new account

Sign in

Already have an account? Sign in here.

Sign In Now

×
×
  • Create New...