Jump to content
IGNORED

Hendrix People Hell and Angels now at HDT


firedog
 Share

Recommended Posts

Main listening (small home office):

Main setup: Surge protector +_iFi  AC iPurifiers >Isol-8 Mini sub Axis Power Conditioning+Isolation>QuietPC Low Noise Server>Roon (Audiolense DRC)>Stack Audio Link II>Kii Control>Kii Three >GIK Room Treatments.

Secondary Listening: Server with Audiolense RC>RPi4 or analog>Matrix Element i Streamer/DAC (XLR)+Schiit Freya>Kii Three .

Bedroom: SBTouch to Cambridge Soundworks Desktop Setup.
Living Room/Kitchen: RPi 3B+ running RoPieee to a pair of Morel Hogtalare. 

All absolute statements about audio are false :)

Link to comment
Share on other sites

FD,

 

I am assuming you purchased this? How good is the SQ on this album?

 

It's fine.

A bit more volume compression than I'd like, but not so much that it seriously bothers me - I didn't feel like I needed to turn the volume down repeatedly like I do when listening to very highly compressed albums. Other than that, the SQ is about as good as one could expect.

 

Good album, though. Worthwhile for Hendrix lovers.

 

foobar2000 1.1.7 / Dynamic Range Meter 1.1.0

log date: 2016-10-02 19:36:49

 

--------------------------------------------------------------------------------

Analyzed: Jimi Hendrix / People, Hell & Angels

--------------------------------------------------------------------------------

 

DR Peak RMS Duration Track

--------------------------------------------------------------------------------

DR9 -0.39 dB -10.31 dB 3:34 01-Earth Blues

DR9 -0.01 dB -10.58 dB 4:07 02-Somewhere

DR10 0.00 dB -11.50 dB 5:43 03-Hear My Train a Comin'

DR10 -0.37 dB -11.83 dB 4:00 04-Bleeding Heart

DR10 -0.39 dB -12.10 dB 6:52 05-Let Me Move You

DR10 -0.30 dB -11.12 dB 3:45 06-Izabella

DR10 -0.30 dB -11.40 dB 5:59 07-Easy Blues

DR10 -0.35 dB -11.77 dB 4:17 08-Crash Landing

DR9 -0.13 dB -10.06 dB 5:06 09-Inside Out

DR11 -0.08 dB -13.19 dB 3:41 10-Hey Gypsy Boy

DR9 -0.37 dB -11.45 dB 4:08 11-Mojo Man

DR10 -0.41 dB -11.92 dB 1:45 12-Villanova Junction Blues

--------------------------------------------------------------------------------

 

Number of tracks: 12

Official DR value: DR10

 

Samplerate: 96000 Hz

Channels: 2

Bits per sample: 24

Bitrate: 2976 kbps

Main listening (small home office):

Main setup: Surge protector +_iFi  AC iPurifiers >Isol-8 Mini sub Axis Power Conditioning+Isolation>QuietPC Low Noise Server>Roon (Audiolense DRC)>Stack Audio Link II>Kii Control>Kii Three >GIK Room Treatments.

Secondary Listening: Server with Audiolense RC>RPi4 or analog>Matrix Element i Streamer/DAC (XLR)+Schiit Freya>Kii Three .

Bedroom: SBTouch to Cambridge Soundworks Desktop Setup.
Living Room/Kitchen: RPi 3B+ running RoPieee to a pair of Morel Hogtalare. 

All absolute statements about audio are false :)

Link to comment
Share on other sites

It's fine.

A bit more volume compression than I'd like, but not so much that it seriously bothers me - I didn't feel like I needed to turn the volume down repeatedly like I do when listening to very highly compressed albums. Other than that, the SQ is about as good as one could expect.

 

Good album, though. Worthwhile for Hendrix lovers.

 

foobar2000 1.1.7 / Dynamic Range Meter 1.1.0

log date: 2016-10-02 19:36:49

 

--------------------------------------------------------------------------------

Analyzed: Jimi Hendrix / People, Hell & Angels

--------------------------------------------------------------------------------

 

DR Peak RMS Duration Track

--------------------------------------------------------------------------------

DR9 -0.39 dB -10.31 dB 3:34 01-Earth Blues

DR9 -0.01 dB -10.58 dB 4:07 02-Somewhere

DR10 0.00 dB -11.50 dB 5:43 03-Hear My Train a Comin'

DR10 -0.37 dB -11.83 dB 4:00 04-Bleeding Heart

DR10 -0.39 dB -12.10 dB 6:52 05-Let Me Move You

DR10 -0.30 dB -11.12 dB 3:45 06-Izabella

DR10 -0.30 dB -11.40 dB 5:59 07-Easy Blues

DR10 -0.35 dB -11.77 dB 4:17 08-Crash Landing

DR9 -0.13 dB -10.06 dB 5:06 09-Inside Out

DR11 -0.08 dB -13.19 dB 3:41 10-Hey Gypsy Boy

DR9 -0.37 dB -11.45 dB 4:08 11-Mojo Man

DR10 -0.41 dB -11.92 dB 1:45 12-Villanova Junction Blues

--------------------------------------------------------------------------------

 

Number of tracks: 12

Official DR value: DR10

 

Samplerate: 96000 Hz

Channels: 2

Bits per sample: 24

Bitrate: 2976 kbps

 

Not bad. Thanks. Love Hendrix, at least on my headphone rig, so I will download it.

Link to comment
Share on other sites

Create an account or sign in to comment

You need to be a member in order to leave a comment

Create an account

Sign up for a new account in our community. It's easy!

Register a new account

Sign in

Already have an account? Sign in here.

Sign In Now
 Share



×
×
  • Create New...