Jump to content
IGNORED

Tchaikovsky- Violin Concerto in D, Op.35 (Julia Fischer)


Recommended Posts

cover.png

 

Downloaded as a DSD ISO from Pentatone Classics. The ISO was packaged in a ZIP file along with nice size cover art (1400x1400 pixels), the album booklet, and another folder which contains the tracks as MP3 files for convenience.

 

The two channel tracks were loaded into Foobar and processed through the Dynamic Range Meter (with the caveat I'm not sure what conversions occur for the DR Meter to process the DSD files, and if it has any impact on the rating!). Amazing sound quality to match an amazing performance.

 

foobar2000 1.3.7 / Dynamic Range Meter 1.1.1

log date: 2016-04-21 14:22:38

 

--------------------------------------------------------------------------------

Analyzed: Julia Fischer - violin, Russian National Orchestra, conducted by: Yakov Kreizberg / Tchaikovsky - Violin Concerto in D ; Sérénade mélancolique ; Valse - Scherzo ; Souvenir d'un lieu cher

--------------------------------------------------------------------------------

 

DR Peak RMS Duration Track

--------------------------------------------------------------------------------

DR15 0.00 dB -20.22 dB 18:06 01-Violin Concerto in D, Op. 35 - Allegro moderato

DR13 -8.22 dB -24.89 dB 6:45 02-Violin Concerto in D, Op. 35 - Canzonetta (Andante)

DR16 0.00 dB -20.85 dB 10:04 03-Violin Concerto in D, Op. 35 - Finale (Allegro vivacissimo)

DR14 -5.74 dB -23.92 dB 9:28 04-Sérénade mélancolique, Op. 26 - Andante

DR15 -2.36 dB -22.27 dB 7:46 05-Valse - Scherzo, Op. 34 - Allegro (Tempo di Valse)

DR16 -2.12 dB -21.91 dB 9:18 06-Souvenir d'un lieu cher, Op. 42 - Méditation

DR15 -1.38 dB -20.11 dB 3:15 07-Souvenir d'un lieu cher, Op. 42 - Scherzo

DR15 -3.58 dB -22.89 dB 3:22 08-Souvenir d'un lieu cher, Op. 42 - Mélodie

--------------------------------------------------------------------------------

 

Number of tracks: 8

Official DR value: DR15

 

Samplerate: 2822400 Hz / PCM Samplerate: 176400 Hz

Channels: 2

Bits per sample: 24

Bitrate: 5645 kbps

Codec: DST64

================================================================================

Office: iPod classic/iPad -> Shure SE425 IEM Home: Oppo BDP-83/Synology DS211j -> Integra DTR-7.8 -> Revel speakers

Link to comment
Share on other sites

  • 3 months later...
  • 2 months later...
  • 1 month later...

For anyone out there who was considering getting this:

 

Pentatone is running a promotion for 25% off of this album with the promo code "XMAS16". Not sure of the end date, but it should be either Christmas or the end of the year.

Office: iPod classic/iPad -> Shure SE425 IEM Home: Oppo BDP-83/Synology DS211j -> Integra DTR-7.8 -> Revel speakers

Link to comment
Share on other sites

  • 11 months later...

Definitely one of the reference recordings and interpretations of the violin concerto. :)

Triangle Magellan Concerto 2 < AQ Everest < Vitus Audio SS-010 Mk2 < AQ Dragon High Current < AQ WEL XLR < Chord Qutest DAC w UpTone JS-2 & AQ Dragon Source < AQ Diamond USB < Innuos Phoenix USB w AQ Dragon Source < Aurender N100H & AQ Dragon Source < NetGear GS105GE Switch w UpTone LPS1.2 < Supra CAT8 Ethernet < Gryphon PowerZone w AQ NRG-Wild < Stillpoints UltraSS, Ansuz Darkz D-TC & D2, Omicron Harmonic Stabilizer, Gold Evolution SE & Classic < Furutech FT-SWS (R) < Synergistic Research Orange Quantum Fuse < Solid Tech Hybrid < GigaWatt G-16A 2P Circuit Breaker

Link to comment
Share on other sites

Create an account or sign in to comment

You need to be a member in order to leave a comment

Create an account

Sign up for a new account in our community. It's easy!

Register a new account

Sign in

Already have an account? Sign in here.

Sign In Now
 Share



×
×
  • Create New...