Jump to content
IGNORED

Elton John's Wonderful Crazy Night...is crazy compressed!


Recommended Posts

81AshYhcCHL._SL1400_.jpg

 

Album details - Dynamic Range Database

 

foobar2000 1.3.4 / Dynamic Range Meter 1.1.1

log date: 2016-02-06 10:24:47

 

--------------------------------------------------------------------------------

Analyzed: Elton John / Wonderful Crazy Night

--------------------------------------------------------------------------------

 

DR Peak RMS Duration Track

--------------------------------------------------------------------------------

DR7 0.00 dB -8.27 dB 3:14 01-Wonderful Crazy Night

DR7 0.00 dB -7.83 dB 4:34 02-In The Name Of You

DR6 0.00 dB -8.35 dB 4:23 03-Claw Hammer

DR7 0.00 dB -9.09 dB 3:38 04-Blue Wonderful

DR6 0.00 dB -7.68 dB 4:35 05-I've Got 2 Wings

DR7 0.00 dB -8.41 dB 4:51 06-A Good Heart

DR7 0.00 dB -8.07 dB 4:07 07-Looking Up

DR7 0.00 dB -8.40 dB 3:39 08-Guilty Pleasure

DR7 0.00 dB -8.39 dB 4:17 09-Tambourine

DR7 0.00 dB -8.86 dB 4:04 10-The Open Chord

DR7 0.00 dB -9.76 dB 3:56 11-Free And Easy

DR7 0.00 dB -7.99 dB 3:51 12-England And America

--------------------------------------------------------------------------------

 

Number of tracks: 12

Official DR value: DR7

Samplerate: 96000 Hz

Channels: 2

Bits per sample: 24

Bitrate: 3273 kbps

Codec: FLAC

================================================================================

A Digital Audio Converter connected to my Home Computer taking me into the Future

Link to comment
Share on other sites

  • 2 weeks later...

Create an account or sign in to comment

You need to be a member in order to leave a comment

Create an account

Sign up for a new account in our community. It's easy!

Register a new account

Sign in

Already have an account? Sign in here.

Sign In Now
 Share



×
×
  • Create New...