Jump to content
IGNORED

New Enrico Pieranunzi album out - Proximity - high-res anywhere?


Musicophile
 Share

Recommended Posts

Enrico Pieranunzi just released a new album on Camjazz.

 

Unfortunately, it seems to be redbook only. Has anybody seen a high-res version somewhere?

 

Proximity - Enrico Pieranunzi

 

Yes, I knew this one pretty well, streaming it over and over again through Qobuz. There is something in this album, that I am doing so. It's not like immediately you know that's it, but something hidden, which makes you listening to it repeatedly.

--

Krzysztof Maj

http://mkrzych.wordpress.com/

"Music is the highest form of art. It is also the most noble. It is human emotion, captured, crystallised, encased… and then passed on to others." - By Ken Ishiwata

Link to comment
Share on other sites

I love drummerless bands. They have a very intimate, chamber music feel.

 

I haven't seen any hi-rez releases from Camjazz so far.

 

Also be aware that some (a minority) recent Camjazz recordings are victims of the loudness war (DR8 or 7), so if possible check that out (not easy though with albums that are not big sellers).

Claude

Link to comment
Share on other sites

I love drummerless bands. They have a very intimate, chamber music feel.

 

I haven't seen any hi-rez releases from Camjazz so far.

 

Also be aware that some (a minority) recent Camjazz recordings are victims of the loudness war (DR8 or 7), so if possible check that out (not easy though with albums that are not big sellers).

 

Very true unfortunately.

--

Krzysztof Maj

http://mkrzych.wordpress.com/

"Music is the highest form of art. It is also the most noble. It is human emotion, captured, crystallised, encased… and then passed on to others." - By Ken Ishiwata

Link to comment
Share on other sites

  • 2 months later...

Also be aware that some (a minority) recent Camjazz recordings are victims of the loudness war (DR8 or 7), so if possible check that out (not easy though with albums that are not big sellers).

 

This one looks clean of excessive dynamic-range compression, thankfully:

 

----------------------------------------------------------------------------------------------

DR Peak RMS Filename

----------------------------------------------------------------------------------------------

 

 

DR12 -0.53 dB -14.99 dB 01 (In) Canto.m4a

DR12 -0.53 dB -15.74 dB 02 Line for Lee.m4a

DR13 -0.75 dB -18.60 dB 03 Sundays.m4a

DR12 -0.58 dB -15.91 dB 04 Simul.m4a

DR11 -0.54 dB -14.40 dB 05 No-Nonsense.m4a

DR13 -0.55 dB -16.32 dB 06 Proximity.m4a

DR12 -2.63 dB -18.74 dB 07 Within the House of Night.m4a

DR12 -0.52 dB -14.90 dB 08 Five Plus Five.m4a

----------------------------------------------------------------------------------------------

 

 

Number of files: 8

Official DR value: DR12

 

I have started listening to it, and I like what I hear.

Link to comment
Share on other sites

Create an account or sign in to comment

You need to be a member in order to leave a comment

Create an account

Sign up for a new account in our community. It's easy!

Register a new account

Sign in

Already have an account? Sign in here.

Sign In Now
 Share



×
×
  • Create New...