Jump to content
IGNORED

Peter Gabriel 24/96 downloads included with 1/2 speed master vinyl release


KDinsmore
 Share

Recommended Posts

Has anyone heard the file from these newly released vinyl editions?

Furutech GTX-D, GTX Wall Plate,106-D Cover > NCF Clearline >J River 27 > Curious Cable Evolved USB > Chord Hugo TT 2 > Empyrean Copper PCUHD Cable > Meze Empyrean > my ears > audiophile brain

Link to comment
Share on other sites

Yes, I am listening to Melt (#3) as we speak....what is your question? Sounds pretty good to me...however rumor is these are from the previous SACD reissues and not from the current vinyl release (which is kind of absurd since the vinyl is supposed to be from a digital source too). Anyway....

 

foobar2000 1.3.9 / Dynamic Range Meter 1.1.1

log date: 2016-01-04 17:33:15

 

 

--------------------------------------------------------------------------------

Analyzed: Peter Gabriel / 3

--------------------------------------------------------------------------------

 

 

DR Peak RMS Duration Track

--------------------------------------------------------------------------------

DR9 -0.16 dB -12.21 dB 5:01 ?-And Through The Wire

DR11 -0.18 dB -15.66 dB 4:29 ?-Family Snapshot

DR12 -0.12 dB -14.65 dB 4:07 ?-Games Without Frontiers

DR11 -0.13 dB -13.03 dB 4:43 ?-I Don't Remember

DR13 -0.26 dB -15.60 dB 4:55 ?-Intruder

DR11 -2.64 dB -17.58 dB 4:15 ?-Lead A Normal Life

DR10 -0.05 dB -13.33 dB 3:56 ?-No Self Control

DR10 -0.11 dB -12.52 dB 5:22 ?-Not One Of Us

DR12 -6.79 dB -21.34 dB 1:21 ?-Start

DR11 -0.05 dB -14.07 dB 7:32 10-Biko

--------------------------------------------------------------------------------

 

 

Number of tracks: 10

Official DR value: DR11

 

 

Samplerate: 96000 Hz

Channels: 2

Bits per sample: 24

Bitrate: 4608 kbps

Codec: PCM

================================================================================

Digital: Synology NAS DS716+II > Netgear Nighthawk AC Wireless > Oppo Sonica DAC & 105

Analogue: Sota Sapphire, Well Tempered Classic Arm (LA Labs mod), Charisma Reference One MC, AcousTech PH-1 Premium Phono

The Rest: Conrad Johnson LS-17 Preamp, Conrad Johnson 2300A, Vandersteen 3A Sigs with 2Wq sub

Link to comment
Share on other sites

You answered it. I was hoping for a new remaster and killer DR

Furutech GTX-D, GTX Wall Plate,106-D Cover > NCF Clearline >J River 27 > Curious Cable Evolved USB > Chord Hugo TT 2 > Empyrean Copper PCUHD Cable > Meze Empyrean > my ears > audiophile brain

Link to comment
Share on other sites

Create an account or sign in to comment

You need to be a member in order to leave a comment

Create an account

Sign up for a new account in our community. It's easy!

Register a new account

Sign in

Already have an account? Sign in here.

Sign In Now
 Share



×
×
  • Create New...