Jump to content
IGNORED

Harrison "Living in the Material World 2014" at HDT in High res


Recommended Posts

Anyone going to be the first adopter for this?

the CD version is okay, but some volume compression was added. I'd prefer the hi-res if it is less compressed:

 

--------------------------------------------------------------------------------

Analyzed: George Harrison / 2014 Living in the Material World (Box Set)

--------------------------------------------------------------------------------

 

DR Peak RMS Duration Track

--------------------------------------------------------------------------------

DR10 -0.18 dB -11.65 dB 3:36 01-Give Me Love (Give Me Peace On Earth)

DR11 -0.25 dB -12.92 dB 4:46 02-Sue Me, Sue You Blues

DR11 -0.28 dB -14.23 dB 3:31 03-The Light That Has Lighted the World

DR8 -1.13 dB -10.99 dB 2:57 04-Don't Let Me Wait Too Long

DR10 -0.37 dB -13.53 dB 3:51 05-Who Can See It

DR10 -0.19 dB -11.97 dB 5:30 06-Living in the Material World

DR9 -0.14 dB -11.18 dB 4:34 07-The Lord Loves the One (That Loves the Lord)

DR13 -0.31 dB -16.87 dB 4:10 08-Be Here Now

DR9 -0.26 dB -11.37 dB 4:08 09-Try Some, Buy Some

DR9 -0.86 dB -12.56 dB 2:53 10-The Day the World Gets 'Round

DR9 -0.39 dB -12.45 dB 3:44 11-That Is All

--------------------------------------------------------------------------------

 

Number of tracks: 11

Official DR value: DR10

 

Samplerate: 44100 Hz

Channels: 2

Bits per sample: 16

Main listening (small home office):

Main setup: Surge protector +_iFi  AC iPurifiers >Isol-8 Mini sub Axis Power Conditioning+Isolation>QuietPC Low Noise Server>Roon (Audiolense DRC)>Stack Audio Link II>Kii Control>Kii Three >GIK Room Treatments.

Secondary Listening: Server with Audiolense RC>RPi4 or analog>Matrix Element i Streamer/DAC (XLR)+Schiit Freya>Kii Three .

Bedroom: SBTouch to Cambridge Soundworks Desktop Setup.
Living Room/Kitchen: Ropieee (RPi3b+ with touchscreen) + Schiit Modi3E to a pair of Morel Hogtalare. 

All absolute statements about audio are false :)

Link to comment
I could be the first adopter. What software do you use to generate the DR values report?

 

it's a plug in for foobar. there are lots of dead links for it on the net. Try this, it should work.

 

http://dr.loudness-war.info/downloads/foo_dynamic_range_1.1.1.zip

 

explanation:

How to display Dynamic Range rating in Foobar2000

Main listening (small home office):

Main setup: Surge protector +_iFi  AC iPurifiers >Isol-8 Mini sub Axis Power Conditioning+Isolation>QuietPC Low Noise Server>Roon (Audiolense DRC)>Stack Audio Link II>Kii Control>Kii Three >GIK Room Treatments.

Secondary Listening: Server with Audiolense RC>RPi4 or analog>Matrix Element i Streamer/DAC (XLR)+Schiit Freya>Kii Three .

Bedroom: SBTouch to Cambridge Soundworks Desktop Setup.
Living Room/Kitchen: Ropieee (RPi3b+ with touchscreen) + Schiit Modi3E to a pair of Morel Hogtalare. 

All absolute statements about audio are false :)

Link to comment
Unfortunately, like the hi-res "remaster" of All Things Must Pass and the other titles in the 24/96 Apple Years set, Living in the Material World is overly-compressed.

 

can you post DR numbers?

Main listening (small home office):

Main setup: Surge protector +_iFi  AC iPurifiers >Isol-8 Mini sub Axis Power Conditioning+Isolation>QuietPC Low Noise Server>Roon (Audiolense DRC)>Stack Audio Link II>Kii Control>Kii Three >GIK Room Treatments.

Secondary Listening: Server with Audiolense RC>RPi4 or analog>Matrix Element i Streamer/DAC (XLR)+Schiit Freya>Kii Three .

Bedroom: SBTouch to Cambridge Soundworks Desktop Setup.
Living Room/Kitchen: Ropieee (RPi3b+ with touchscreen) + Schiit Modi3E to a pair of Morel Hogtalare. 

All absolute statements about audio are false :)

Link to comment
  • 2 weeks later...

These numbers look pretty close to what you posted for the cd...

 

--------------------------------------------------------------------------------

Analyzed: George Harrison / The Apple Years 1968-75

--------------------------------------------------------------------------------

 

DR Peak RMS Duration Track

--------------------------------------------------------------------------------

DR10 -0.03 dB -11.54 dB 3:36 75-Give Me Love (Give Me Peace On Earth)

DR11 0.00 dB -12.81 dB 4:46 76-Sue Me, Sue You Blues

DR11 0.00 dB -14.13 dB 3:31 77-The Light That Has Lighted The World

DR8 -0.73 dB -10.89 dB 2:57 78-Don't Let Me Wait Too Long

DR10 0.00 dB -13.43 dB 3:51 79-Who Can See It

DR10 0.00 dB -11.91 dB 5:30 80-Living In The Material World

DR9 0.00 dB -11.07 dB 4:34 81-The Lord Loves The One (That Loves The Lord)

DR13 -0.20 dB -16.77 dB 4:10 82-Be Here Now

DR9 0.00 dB -11.26 dB 4:08 83-Try Some Buy Some

DR9 -0.60 dB -12.46 dB 2:53 84-The Day The World Gets 'Round

DR9 -0.07 dB -12.34 dB 3:44 85-That Is All

--------------------------------------------------------------------------------

 

Number of tracks: 11

Official DR value: DR10

 

Samplerate: 96000 Hz

Channels: 2

Bits per sample: 24

Bitrate: 2986 kbps

Codec: FLAC

================================================================================

 

There are also some bonus tracks:

 

--------------------------------------------------------------------------------

Analyzed: George Harrison / The Apple Years 1968-75

--------------------------------------------------------------------------------

 

DR Peak RMS Duration Track

--------------------------------------------------------------------------------

DR16 -0.05 dB -17.78 dB 3:45 86-Deep Blue (Bonus Track)

DR12 -0.20 dB -14.12 dB 2:32 87-Miss O'Dell (Bonus Track)

DR10 0.00 dB -11.59 dB 3:57 88-Bangla Desh (Bonus Track)

--------------------------------------------------------------------------------

 

Number of tracks: 3

Official DR value: DR13

 

Samplerate: 96000 Hz

Channels: 2

Bits per sample: 24

Bitrate: 3057 kbps

Codec: FLAC

Link to comment

Create an account or sign in to comment

You need to be a member in order to leave a comment

Create an account

Sign up for a new account in our community. It's easy!

Register a new account

Sign in

Already have an account? Sign in here.

Sign In Now


×
×
  • Create New...