Jump to content
IGNORED

Mendelssohn - String Quintets (BIS1254- eClassical)


Recommended Posts

Available as 24 bit / 176.4kHz FLAC extracted from SACD. Per the booklet, this recording seems to have been done in DSD as well. Absolutely superb recording quality, not qualified enough to comment on the performance though :)

 

foobar2000 1.2 / Dynamic Range Meter 1.1.1

log date: 2014-02-27 19:34:16

 

--------------------------------------------------------------------------------

Analyzed: Mann, Robert / Mendelssohn - String Quintets

--------------------------------------------------------------------------------

 

DR Peak RMS Duration Track

--------------------------------------------------------------------------------

DR15 -0.42 dB -20.17 dB 9:25 1/8-(String Quintet No.2 in B flat major, Op.87) - I. Allegro vivace

DR13 -4.89 dB -24.80 dB 4:32 2/8-(String Quintet No.2 in B flat major, Op.87) - II. Andante scherzando

DR14 -0.86 dB -21.16 dB 8:40 3/8-(String Quintet No.2 in B flat major, Op.87) - III. Adagio e lento

DR15 -0.92 dB -20.49 dB 6:00 4/8-(String Quintet No.2 in B flat major, Op.87) - IV. Allegro molto vivace

DR15 -1.95 dB -23.02 dB 11:47 5/8-(String Quintet No.1 in A major, Op.18) - I. Allegro con moto

DR15 -2.78 dB -23.96 dB 7:59 6/8-(String Quintet No.1 in A major, Op.18) - II. Intermezzo: Andante sostenuto

DR16 -2.52 dB -26.30 dB 4:28 7/8-(String Quintet No.1 in A major, Op.18) - III. Scherzo: Allegro di molto

DR15 -0.05 dB -19.86 dB 6:40 8/8-(String Quintet No.1 in A major, Op.18) - IV. Allegro vivace

--------------------------------------------------------------------------------

 

Number of tracks: 8

Official DR value: DR15

 

Samplerate: 176400 Hz

Channels: 2

Bits per sample: 24

Bitrate: 5850 kbps

Codec: FLAC

================================================================================

Office: iPod classic/iPad -> Shure SE425 IEM Home: Oppo BDP-83/Synology DS211j -> Integra DTR-7.8 -> Revel speakers

Link to comment

Create an account or sign in to comment

You need to be a member in order to leave a comment

Create an account

Sign up for a new account in our community. It's easy!

Register a new account

Sign in

Already have an account? Sign in here.

Sign In Now


×
×
  • Create New...