Jump to content
Sign in to follow this  
KDinsmore

Eno LUX

Rate this topic

Recommended Posts

I downloaded Brian Eno's LUX in 24Bit WAV from Bleep.com for $12. Awesome Droning Deliciousness.

 

 

Analyzed: Brian Eno / LUX

--------------------------------------------------------------------------------

 

DR Peak RMS Duration Track

--------------------------------------------------------------------------------

DR15 -0.16 dB -20.35 dB 19:21 ?-LUX 1

DR14 -0.17 dB -19.77 dB 18:14 ?-LUX 2

DR14 -0.17 dB -19.43 dB 19:19 ?-LUX 3

DR15 -0.16 dB -21.15 dB 18:28 ?-LUX 4

--------------------------------------------------------------------------------

 

Number of tracks: 4

Official DR value: DR15

 

Samplerate: 44100 Hz

Channels: 2

Bits per sample: 24

Bitrate: 2116 kbps

Codec: PCM


Furutech GTX-D>J River 23>Cardas Clear USB>Wyred4Sound DAC2v2 SE>Moon Audio Blue Dragon IC>Cavalli Liquid Fire>Q French Silk Headphone cable>Audeze LCD2rev2>my ears>audiophile brain

Share this post


Link to post
Share on other sites
LUX.png

Furutech GTX-D>J River 23>Cardas Clear USB>Wyred4Sound DAC2v2 SE>Moon Audio Blue Dragon IC>Cavalli Liquid Fire>Q French Silk Headphone cable>Audeze LCD2rev2>my ears>audiophile brain

Share this post


Link to post
Share on other sites

Create an account or sign in to comment

You need to be a member in order to leave a comment

Create an account

Sign up for a new account in our community. It's easy!

Register a new account

Sign in

Already have an account? Sign in here.

Sign In Now
Sign in to follow this  

×
×
  • Create New...